#TITLE:Crazy;
#SUBTITLE:;
#ARTIST:Teen Top;
#TITLETRANSLIT:;
#SUBTITLETRANSLIT:;
#ARTISTTRANSLIT:;
#CREDIT:;
#BANNER:Teen Top-Crazy_BN.PNG;
#BACKGROUND:Teen Top-Crazy_BG.PNG;
#LYRICSPATH:;
#CDTITLE:;
#MUSIC:Teen Top-Crazy.mp3;
#OFFSET:0.000;
#SAMPLESTART:71.370;
#SAMPLELENGTH:28.000;
#SELECTABLE:YES;
#BPMS:0.000=140.000,36.000=280.000,42.000=140.000,131.250=280.000,139.250=140.000,150.500=70.000,152.500=140.000,164.500=280.000,171.750=140.000,261.000=280.000,269.000=139.999,292.000=279.999,304.000=559.995,312.000=139.999,401.000=279.999,409.000=139.999;
#STOPS:42.000=0.321
,74.250=0.214
,74.500=0.214
,81.250=0.214
,81.500=0.214
,88.250=0.214
,88.500=0.214
,139.250=0.321
,171.750=0.107
,204.000=0.214
,204.250=0.214
,211.000=0.214
,211.250=0.214
,218.000=0.214
,218.250=0.214
,271.000=0.107
,271.250=0.107
,278.500=0.107
,278.750=0.107
,344.000=0.214
,344.250=0.214
,351.000=0.214
,351.250=0.214
,358.000=0.214
,358.250=0.214
,409.000=0.321
,409.250=0.321
,409.500=0.321
,409.750=0.321
,414.000=0.321
,414.250=0.321
,414.500=0.321
,414.750=0.321
,419.000=0.321
,419.250=0.321
,419.500=0.321
,419.750=0.321
,424.000=0.321
,424.250=0.321
,424.500=0.321
,424.750=0.321
;
#BGCHANGES:;
// cache tags:
#FIRSTBEAT:0.500;
#LASTBEAT:429.750;
#SONGFILENAME:Songs/SDO pack 3/Teen Top-Crazy/Teen Top-Crazy.sm;
#HASMUSIC:1;
#HASBANNER:1;
#MUSICLENGTH:187.018;
// end cache tags

//---------------dance-single - ----------------
#NOTES:
     dance-single:
     :
     Hard:
     10:
     1.000,1.000,1.000,0.631,1.000,1107.000,680.000,118.000,0.000,120.000:
0000
2020
0000
0000
0000
0000
0000
0000
,
0101
0101
0101
0101
,
0101
0000
0000
0000
0101
0000
0000
0000
0101
0000
0100
0001
0101
0000
0100
0000
,
3031
0102
0110
0010
1100
0100
0110
1000
,
1100
0000
0100
0000
1010
0000
0010
0000
1010
0000
0010
0203
1001
0000
0010
0000
,
0011
1000
1010
1000
0011
1000
1010
0010
,
0011
0000
1000
2300
0011
0000
0001
0000
0110
0000
0010
0000
0101
0000
0001
0000
,
0110
0000
0001
0000
0101
0000
0100
0000
0110
0000
0100
0010
0112
0000
0010
0000
,
0110
0010
0010
0010
0110
0010
0100
0010
0110
0100
0100
0100
0110
0010
0100
0010
,
3103
0010
0001
0010
0100
1000
0100
0010
0001
0010
0100
1000
0100
0010
0001
0010
,
0100
1000
0100
0010
0001
0010
0100
1000
0110
1001
0000
0011
0000
0110
0000
1100
,
0000
1001
0000
0011
0000
0110
0000
1100
0000
1001
0000
0110
0000
0110
0000
0011
,
0000
1001
0000
0110
1000
1001
0000
1001
0000
1100
0000
0110
0000
0011
0000
0110
,
0000
1100
0000
0110
0000
0011
0000
0110
0000
0110
0000
0110
0000
1100
0000
1010
,
0000
0101
0000
0101
0101
0110
0000
1100
0000
1100
0000
1001
0000
0101
0000
1010
,
0000
1001
0000
0110
0000
0110
0000
1001
0000
1010
0000
1010
0000
1001
0000
1001
,
0000
1010
0000
0101
1001
0101
0000
1100
1001
1001
1100
0110
0010
1100
0100
0101
,
0100
1010
0010
1001
1000
0110
0001
1001
0100
0110
1000
1100
0010
1100
0100
0101
,
1000
0110
0010
1001
1001
0101
0010
0110
1000
1001
1001
1001
0000
0000
0000
0110
,
0000
0110
0000
1001
0000
1010
0000
1100
0000
1010
0000
0011
0000
1001
0000
0101
,
1010
0110
0000
1000
0000
1001
1001
1001
0000
0000
0000
0110
0000
0110
0000
1001
,
0000
1010
0000
1100
0000
1010
0000
0011
0000
1001
0000
0101
1010
0110
0000
0000
,
0000
1100
0110
0011
0000
0000
0000
0110
0000
0110
0000
1001
0000
1010
0000
1100
,
0000
1010
0000
0011
0000
1001
0000
0101
1010
0110
0000
0101
0000
1010
0000
1001
,
0000
0101
0000
1001
0000
0110
0000
1001
0000
1100
0000
1010
0000
1001
0100
0101
,
0100
1010
0001
0110
0010
1010
0100
1010
0010
0110
1000
0101
0100
1120
0000
1001
,
0000
1001
0000
1001
0000
1001
0000
1100
0000
0101
0000
0101
0030
1010
0000
1010
,
0000
0011
0000
0011
0000
1010
0000
0011
0100
1011
0000
1100
0000
2101
0000
0011
,
0000
0110
0000
0110
0000
0101
0000
0110
0000
0011
0000
0110
3000
1010
0000
0101
,
0000
1010
0000
0101
0000
0011
0000
0110
0010
1110
0000
0110
0000
1102
0000
1010
,
0000
0110
0000
0110
0010
1100
1000
1010
0100
0110
0010
0110
0003
0011
0000
0011
,
0000
0101
0000
0110
0010
0101
0010
1001
0101
1110
0010
1001
0000
1201
0000
1010
,
0000
0011
0000
1010
0010
1001
0010
1010
0001
1010
1000
1300
0000
0010
0000
1000
,
0000
0010
0000
0100
0000
0010
0000
0010
0000
0001
0000
1000
0000
0010
0000
0001
,
0000
0110
0000
0101
0000
0110
0000
1010
0000
1001
0000
1100
0000
1010
0100
1000
,
0101
0000
0100
0000
0110
0000
0100
0000
0110
0000
1000
0000
1010
1000
1000
0000
,
0110
0000
0010
0000
1010
0000
0010
0000
0101
0000
0100
0000
0011
1000
1000
0000
,
1001
0000
0000
0000
0000
0000
0000
0000
1000
0000
0000
0000
0000
0000
0000
0000
0011
0000
0000
0000
0000
0000
0000
0000
0100
0000
0000
0000
0000
0000
0000
0000
0101
0000
0000
0000
0000
0000
0000
0000
0202
0000
0303
0000
2200
3300
2002
0000
3003
0000
0000
0000
0220
0000
0330
0000
0000
0000
0000
0000
2000
0000
3000
0000
,
0200
0300
0020
0030
0010
0000
0000
0000
0012
0000
0010
0000
0010
0000
0010
0000
0100
0000
0100
0000
1000
0000
1000
0000
0010
0000
0010
0000
0103
0000
1000
0000
,
0010
1000
1200
1000
0001
1000
0010
0001
0001
1000
1000
0001
0010
1000
1000
1000
,
0310
0100
2010
0001
0001
0001
0100
0001
0010
0100
0010
0010
0100
0010
3001
1000
,
1000
1000
0110
1000
0001
1000
0010
0100
0001
1000
1000
0001
0100
0100
0001
0100
,
1000
0010
1000
1000
0100
0010
0001
0010
1000
0001
0100
0100
0001
0100
0010
1001
,
1001
0011
0110
1100
1001
0011
0110
1100
,
1001
0000
0110
0000
0110
0000
0011
0000
1001
0000
0110
1000
1001
0000
1001
0000
,
1100
0110
0011
0110
1100
0110
0011
0110
,
0110
0000
0110
0000
1100
0000
1010
0000
0101
0000
0101
0101
0110
0000
1100
0000
,
1100
1001
0101
1010
1001
0110
0110
1001
,
1010
0000
1010
0000
1001
0000
1001
0000
1010
0000
0101
1001
0101
0000
1100
1001
,
1001
1100
0110
0010
1100
0100
0101
0100
1010
0010
1001
1000
0110
0001
1001
0100
,
0110
1000
1100
0010
1100
0100
0101
1000
0110
0010
1001
1001
0101
0010
0110
1000
,
1001
1001
1001
0000
0000
0000
1001
0000
1001
0000
1001
0000
1100
0000
0010
0000
,
0001
0000
0010
0000
1100
0000
0001
0000
0010
0000
1100
0000
1001
1001
1001
0000
,
0000
1001
1001
1001
0011
0100
1000
0100
,
0011
0000
1000
0000
0100
0000
0011
0000
1001
1001
1001
0000
0000
0000
1001
0000
,
1001
0000
1001
0000
1100
0000
1010
0000
0011
0000
1001
0000
0101
0000
0110
1010
,
0101
1010
1001
0101
1001
0110
1001
1100
,
1010
0000
1001
0000
0101
0100
1010
0001
0110
0010
1010
0100
1010
0010
0110
1000
,
0101
0000
0000
0000
0000
0000
0000
0000
0000
0000
0000
0000
0100
0000
0000
0000
0000
0000
0000
0000
0000
0000
0000
0000
1120
0030
0000
0000
0000
0000
0000
0000
0000
0000
0000
0000
0100
0000
0000
0000
0000
0000
0000
0000
0000
0000
0000
0000
1210
0000
0000
0000
0000
0000
0000
0000
0000
0000
0000
0000
0000
0000
0000
0000
0000
0000
0000
0000
0000
0000
0000
0000
0011
0000
0000
0000
0000
0000
0000
0000
0000
0000
0000
0000
0000
0000
0000
0000
0000
0000
0000
0000
0000
0000
0000
0000
1001
0000
0000
0000
0000
0000
0000
0000
0000
0000
0000
0000
0000
0000
0000
0000
0000
0000
0000
0000
0000
0000
0000
0000
1001
0000
0000
0000
0000
0000
0000
0000
0000
0000
0000
0000
0000
0000
0000
0000
0000
0000
0000
0000
0000
0000
0000
0000
0011
0000
0000
0000
0000
0000
0000
0000
0000
0000
0000
0000
0000
0000
0000
0000
0000
0000
0000
0000
0000
0000
0000
0000
0011
0000
0000
0000
0000
0000
0000
0000
0000
0000
0000
0000
0000
0000
0000
0000
0000
0000
0000
0000
0000
0000
0000
0000
,
0011
0000
1010
0300
1100
0000
1001
0000
1100
0000
1001
0000
0110
0000
0110
0100
,
1110
1001
1120
0101
0101
1001
1001
1001
,
0101
0000
0101
0030
0101
0000
1010
0000
1010
0000
0011
0000
0101
0000
0110
0100
,
1110
0000
1001
0000
2011
0000
0011
0000
0110
0010
0110
0100
0110
0010
0101
0100
,
0011
0010
0101
3000
0101
0000
1001
0000
0011
0000
0110
0100
0101
0001
1010
1010
,
1101
0001
0011
0000
1102
0000
0110
0000
0110
0000
1100
0010
0110
1000
0110
1000
,
0110
0010
0103
0100
0001
0000
0010
0000
1000
0000
1000
0000
0010
0000
1000
0000
,
0100
0001
1000
0010
1001
0011
0011
1100
,
1010
0000
1100
0000
1001
0000
1001
0000
1100
0000
1010
0000
1100
0101
1100
0000
,
0011
0011
0101
1100
1100
1100
0110
0101
,
1010
0000
1010
0000
0110
0000
1100
0000
1100
0000
0011
0101
0110
0000
1001
0000
,
1010
1001
1001
0011
1001
1001
1010
0110
,
1001
0100
0100
0100
0010
0100
0100
0010
1000
0100
0010
1000
0010
0010
1000
0001
,
1000
0100
0001
0010
0001
1000
1000
0001
0010
0010
0010
0100
0100
0100
0100
0100
,
0110
0001
0100
0001
0100
0100
1000
0100
1000
0001
0010
0100
1000
0100
0010
0100
,
1000
1000
0001
0001
0010
1000
0001
0001
1000
1000
0001
0010
1000
1000
0001
1000
,
0010
1000
0100
0100
1000
1000
0001
1000
0001
0010
1000
0010
0010
0001
1000
0001
,
1000
1000
1000
0001
0100
0100
0100
0001
,
1000
1000
1000
1000
0100
0001
0010
0001
,
1001
0011
0110
1100
1001
0011
0110
1100
,
1001
0000
0110
0000
0110
0000
0011
0000
1001
0000
0110
1000
1001
0000
1001
0000
,
1100
0110
0011
0110
1100
0110
0011
0110
,
0110
0000
0110
0000
1100
0000
1010
0000
0101
0000
0101
0101
0110
0000
1100
0000
,
1100
1001
0101
1010
1001
0110
0110
1001
,
1010
0000
1010
0000
1001
0000
1001
0000
1010
0000
0101
1001
0101
0000
1100
1001
,
1001
1100
0110
0010
1100
0100
0101
0100
1010
0010
1001
1000
0110
0001
1001
0100
,
0110
1000
1100
0010
1100
0100
0101
1000
0110
0010
1001
1001
0101
0010
0110
1000
,
1001
1001
1001
0000
0000
0000
1001
0000
1001
0000
1001
0000
1010
0000
1100
0000
,
1010
0000
0011
0000
1001
0000
0101
1010
0110
0000
1000
0000
1100
0110
0011
0000
,
0000
1001
1100
0011
1010
1100
1010
0011
,
1001
0000
0101
1010
0110
0000
1000
0000
1100
0110
0011
0000
0000
0000
0110
0000
,
0110
0000
1001
0000
1010
0000
1100
0000
1010
0000
0011
0000
1001
0000
0101
1010
,
0110
0101
1010
1001
0101
1001
0110
1001
,
1100
0000
1010
0000
1001
0100
0101
0100
1010
0001
0110
0010
1010
0100
1010
0010
,
0110
0000
0000
0000
0000
0000
0000
0000
0000
0000
0000
0000
1000
0000
0000
0000
0000
0000
0000
0000
0000
0000
0000
0000
0101
0000
0000
0000
0000
0000
0000
0000
0000
0000
0000
0000
0100
0000
0000
0000
0000
0000
0000
0000
0000
0000
0000
0000
2202
0003
0000
0000
0000
0000
0000
0000
0000
0000
0000
0000
3300
0000
0000
0000
0000
0000
0000
0000
0000
0000
0000
0000
0000
0000
0000
0000
0000
0000
0000
0000
0000
0000
0000
0000
2200
0000
0000
0000
0000
0000
0000
0000
0000
0000
0000
0000
3300
0000
0000
0000
0000
0000
0000
0000
0000
0000
0000
0000
0000
0000
0000
0000
0000
0000
0000
0000
0000
0000
0000
0000
2200
0000
0000
0000
0000
0000
0000
0000
0000
0000
0000
0000
3300
0000
0000
0000
0000
0000
0000
0000
0000
0000
0000
0000
2200
0000
0000
0000
0000
0000
0000
0000
0000
0000
0000
0000
3300
0000
0000
0000
0000
0000
0000
0000
0000
0000
0000
0000
0000
0000
0000
0000
0000
0000
0000
0000
0000
0000
0000
0000
2200
0000
0000
0000
0000
0000
0000
0000
0000
0000
0000
0000
,
3300
0000
2200
3300
2200
3300
0000
2200
3300
0000
2200
3300
2200
3300
0000
2200
,
3300
0000
2200
3300
0022
0033
0000
0022
0033
0000
0022
0033
0022
0033
0000
0022
,
0033
0000
0022
0033
0022
0033
0000
0022
0033
0000
0022
0033
0022
0033
0000
0022
,
0033
0000
0022
0033
2020
3030
0000
2020
3030
0000
2020
3030
2020
3030
0000
2020
,
3030
0000
2020
3030
2020
3030
0000
2020
3030
0000
2020
3030
2020
3030
0000
2020
,
3030
0000
2020
3030
0202
0303
0000
0202
0303
0000
0202
0303
0202
0303
0000
0202
,
0303
0000
0202
0303
0101
0010
0001
0010
0001
1000
0100
0001
0010
0100
0010
0100
,
1000
1000
0100
0010
0001
0100
1000
1000
0001
1000
0100
0010
0100
0001
0010
0001
,
1000
1000
0001
0001
1001
1001
1001
1001
1100
0100
0110
0001
0101
0001
0101
0000
,
0110
0000
1100
1000
1001
0000
1100
0000
1001
1001
1001
1001
0101
0001
0011
0010
,
0110
1000
0101
0000
0110
0000
1010
0010
1001
0000
0110
0000
1001
1001
1001
1001
,
1010
0100
1100
0001
1001
0001
0101
0000
1001
0000
1100
1000
1100
0000
0110
0000
,
1001
1001
1001
1001
0101
1000
0011
0100
1010
1000
0011
0100
1100
0010
0101
1000
,
0110
0100
0110
0110
2222
0000
0000
3333
0000
0000
0000
0000
0000
0000
0000
0000
;
